<?xml version="1.0" standalone="no"?>
<!DOCTYPE svg PUBLIC "-//W3C//DTD SVG 1.1//EN" "http://www.w3.org/Graphics/SVG/1.1/DTD/svg11.dtd" >
<svg xmlns="http://www.w3.org/2000/svg">
<metadata>
This is a custom SVG font generated by IcoMoon.
<iconset grid="16"></iconset>
</metadata>
<defs>
<font id="squarespace-ui-font" horiz-adv-x="512" >
<font-face units-per-em="512" ascent="480" descent="-32" />
<missing-glyph horiz-adv-x="512" />
<glyph unicode="&#xe000;" d="M 298.667,394.667L 362.667,330.667L 266.667,234.667L 362.667,138.667L 298.667,74.667L 138.667,234.667 			z" />
<glyph unicode="&#xe001;" d="M 490.737,223.975c0,130.072-105.453,235.512-235.52,235.512c-130.080,0-235.52-105.44-235.52-235.512
		c0-130.080, 105.44-235.528, 235.52-235.528C 385.284-11.552, 490.737,93.896, 490.737,223.975z M 70.896,223.975
		c0,101.792, 82.52,184.312, 184.32,184.312s 184.32-82.52, 184.32-184.312c0-101.808-82.52-184.328-184.32-184.328
		S 70.896,122.168, 70.896,223.975z M 353.777,177.888l0,92.16 L 249.063,270.048 l0,57.6 l-97.528-103.68l 97.528-103.68l0,57.6 L 353.777,177.888 z" />
<glyph unicode="&#xe002;" d="M 262.456,55.008L 262.476,152.985L 442.097,152.968L 442.097,295.128L 262.456,295.128L 262.476,392.928L 68.336,223.956 	z" />
<glyph unicode="&#xe003;" d="M 192,394.667L 128,330.667L 224,234.667L 128,138.667L 192,74.667L 352,234.667 			z" />
<glyph unicode="&#xe004;" d="M 19.697,223.956c0-130.067, 105.448-235.508, 235.52-235.508c 130.080,0, 235.52,105.44, 235.52,235.508
		c0,130.080-105.44,235.532-235.52,235.532C 125.144,459.488, 19.697,354.037, 19.697,223.956z M 439.537,223.956
		c0-101.789-82.52-184.308-184.32-184.308s-184.32,82.52-184.32,184.308c0,101.812, 82.52,184.332, 184.32,184.332
		S 439.537,325.768, 439.537,223.956z M 156.656,270.048l0-92.16 l 104.708,0 l0-57.6 l 97.532,103.68l-97.532,103.68l0-57.6 L 156.656,270.048 z" />
<glyph unicode="&#xe005;" d="M 256.384,392.96L 256.384,294.963L 76.749,294.989L 76.749,152.858L 256.384,152.858L 256.384,55.040L 450.509,224.026 	z" />
<glyph unicode="&#xe006;" d="M 396.62,187.188c-10.433,10.696-120.211,115.252-120.211,115.252c-5.569,5.708-12.868,8.572-20.168,8.572
	c-7.312,0-14.612-2.864-20.172-8.572c0,0-109.78-104.557-120.221-115.252c-10.428-10.696-11.14-29.937,0-41.36
	c 11.132-11.412, 26.68-12.32, 40.34,0l 100.052,95.92L 356.28,145.828c 13.668-12.32, 29.208-11.412, 40.34,0
	C 407.768,157.253, 407.059,176.493, 396.62,187.188z" />
<glyph unicode="&#xe007;" d="M 255.224-11.552c 130.072,0, 235.512,105.448, 235.512,235.52c0,130.080-105.44,235.52-235.512,235.52
		c-130.080,0-235.528-105.44-235.528-235.52C 19.697,93.896, 125.144-11.552, 255.224-11.552z M 255.224,408.288
		c 101.792,0, 184.312-82.52, 184.312-184.32s-82.52-184.32-184.312-184.32c-101.808,0-184.328,82.52-184.328,184.32
		S 153.417,408.288, 255.224,408.288z M 209.136,125.408l 92.16,0 L 301.297,230.115 l 57.6,0 l-103.68,97.532l-103.68-97.532l 57.6,0 L 209.137,125.408 z" />
<glyph unicode="&#xe008;" d="M 424.177,216.729L 326.196,216.704L 326.216,37.088L 184.064,37.088L 184.064,216.729L 86.256,216.704L 255.236,410.848 	z" />
<glyph unicode="&#xe009;" d="M 396.624,260.744c-10.436-10.692-120.216-115.248-120.216-115.248c-5.569-5.712-12.865-8.568-20.168-8.568
	s-14.607,2.856-20.172,8.568c0,0-109.78,104.557-120.211,115.248c-10.436,10.704-11.147,29.944,0,41.36
	c 11.128,11.417, 26.672,12.32, 40.331,0l 100.052-95.92l 100.044,95.92c 13.664,12.32, 29.204,11.417, 40.34,0
	C 407.768,290.688, 407.059,271.448, 396.624,260.744z" />
<glyph unicode="&#xe00a;" d="M 255.203,459.488c-130.067,0-235.508-105.453-235.508-235.52c0-130.080, 105.44-235.52, 235.508-235.52
		c 130.080,0, 235.532,105.44, 235.532,235.52C 490.737,354.037, 385.284,459.488, 255.203,459.488z M 255.203,39.648
		c-101.789,0-184.308,82.52-184.308,184.32s 82.52,184.32, 184.308,184.32c 101.812,0, 184.332-82.52, 184.332-184.32
		S 357.017,39.648, 255.203,39.648z M 301.297,322.528l-92.16,0 l0-104.712 l-57.6,0 l 103.68-97.528l 103.68,97.528l-57.6,0 L 301.297,322.528 z" />
<glyph unicode="&#xe00b;" d="M 424.177,231.208L 326.196,231.223L 326.216,410.848L 184.060,410.848L 184.060,231.208L 86.256,231.223L 255.232,37.088 
			z" />
<glyph unicode="&#xe00c;" d="M 256,394.667c-94.251,0-170.667-76.416-170.667-170.667s 76.416-170.667, 170.667-170.667s 170.667,76.416, 170.667,170.667S 350.251,394.667, 256,394.667z M 256,96c-70.677,0-128,57.323-128,128s 57.323,128, 128,128s 128-57.323, 128-128
			S 326.677,96, 256,96zM 277.333,215.467L 277.333,330.667L 234.667,330.667L 234.667,192L 313.6,149.333L 341.333,181.333 		z" />
<glyph unicode="&#xe00d;" d="M 256.227,459.488c-130.059,0-235.508-105.456-235.508-235.52c0-130.077, 105.448-235.52, 235.508-235.52
			c 130.080,0, 235.532,105.443, 235.532,235.52C 491.761,354.032, 386.308,459.488, 256.227,459.488z M 256.227,39.648
			c-101.779,0-184.308,82.524-184.308,184.32c0,101.8, 82.528,184.32, 184.308,184.32c 101.812,0, 184.332-82.52, 184.332-184.32
			C 440.561,122.171, 358.041,39.648, 256.227,39.648zM 274.161,357.088L 238.307,357.088L 238.307,216.54L 325.489,129.376L 350.829,154.716L 274.161,231.392 		z" />
<glyph unicode="&#xe00e;" d="M 433.387,217.323L 234.667,416L 64,416 l0-170.667 l 198.72-198.699c 13.397-13.397, 35.115-13.397, 48.512,0l 122.155,122.176
		C 446.784,182.187, 446.784,203.904, 433.387,217.323z M 160,277.333c-23.573,0-42.667,19.093-42.667,42.667s 19.093,42.667, 42.667,42.667c 23.573,0.064, 42.667-19.093, 42.667-42.667S 183.531,277.333, 160,277.333
		z" />
<glyph unicode="&#xe00f;" d="M 493.068,469.58c-2.784,8.075-11.509,12.328-19.471,9.52c-7.972-2.812-12.185-11.637-9.409-19.704
		c 23.544-68.352-23.188-119.388-58.804-146.728l-14.424,20.849c-4.828,6.972-15.656,12.775-24.060,12.9l-80.776-0.368
		c-8.4,0.132-20.916-3.76-27.804-8.644L 20.328,168.74c-11.528-8.167-14.336-24.248-6.264-35.924l 108.171-156.356
		c 8.072-11.668, 21.044-10.272, 32.571-2.103l 237.996,168.66c 6.884,4.883, 14.768,15.456, 17.54,23.496l 25.296,80.544
		c 2.757,8.039, 1.076,20.324-3.756,27.296l-8.792,12.704C 470.968,324.056, 520.645,389.523, 493.068,469.58z M 382.34,230.068
		c-18.447-13.064-43.875-8.52-56.784,10.14c-12.92,18.68-8.44,44.4, 10.016,57.48
		c 14.64,10.376, 33.656,9.62, 47.344-0.453c-6.893-4.199-11.616-6.616-12.519-7.048c-7.632-3.649-10.891-12.865-7.304-20.584
		c 2.612-5.604, 8.112-8.888, 13.852-8.888c 2.18,0, 4.4,0.48, 6.503,1.481c 4.908,2.34, 10.188,5.168, 15.692,8.459
		C 401.624,255.476, 395.64,239.492, 382.34,230.068z" />
<glyph unicode="&#xe010;" d="M 362.667,373.333L 149.333,373.333 C 114.133,373.333, 85.333,344.533, 85.333,309.333l0-128 c0-35.2, 28.8-64, 64-64l 21.333,0 l0-85.333 l 85.333,85.333l 106.667,0 c 35.2,0, 64,28.8, 64,64L 426.667,309.333 C 426.667,344.533, 397.867,373.333, 362.667,373.333z" />
<glyph unicode="&#xe011;" d="M 409.841,403.168l-307.2,0 c-28.16,0-51.2-23.040-51.2-51.2l0-179.2 c0-28.16, 23.040-51.2, 51.2-51.2l 102.4,0 l 102.4-76.8l0,76.8 l 102.4,0 c 28.16,0, 51.2,23.040, 51.2,51.2l0,179.2 
		C 461.041,380.128, 438.001,403.168, 409.841,403.168z" />
<glyph unicode="&#xe012;" d="M 256,280C 256,331.541, 214.208,373.333, 162.667,373.333S 69.333,331.541, 69.333,280c0-24.043, 3.392-59.392, 37.333-93.333S 256,74.667, 256,74.667
			s 115.392,78.059, 149.333,112s 37.333,69.291, 37.333,93.333C 442.667,331.541, 400.875,373.333, 349.333,373.333S 256,331.541, 256,280" />
<glyph unicode="&#xe013;" d="M 437.128,373.2c-42.295,39.28-110.88,39.28-153.187,0l-28.72-26.676l-28.731,26.676
	c-42.295,39.28-110.88,39.28-153.176,0c-47.592-44.192-47.592-115.836,0-160.025l 181.907-168.92l 181.907,168.92
	C 484.721,257.364, 484.721,329.008, 437.128,373.2z M 410.184,239.433l-154.964-146.268L 100.26,239.433
	c-15.636,14.52-21.684,33.609-21.684,53.752c 0.004,20.144, 3.488,36.676, 19.124,51.192c 13.804,12.815, 32.344,19.884, 52.2,19.884
	s 38.396-12.188, 52.204-25.012l 53.12-46.752l 53.1,46.752c 13.816,12.825, 32.356,25.012, 52.216,25.012
	c 19.855,0, 38.396-7.068, 52.204-19.884c 15.631-14.516, 19.116-31.048, 19.12-51.192C 431.864,273.040, 425.816,253.952, 410.184,239.433z
	" />
<glyph unicode="&#xe014;" d="M 240,64L 96,64 l0,144 l 144,0 L 240,64 z M 128,96l 80,0 l0,80 L 128,176 L 128,96 zM 416,64l-144,0 l0,144 l 144,0 L 416,64 z M 304,96l 80,0 l0,80 l-80,0 L 304,96 zM 240,240L 96,240 L 96,384 l 144,0 L 240,240 z M 128,272l 80,0 L 208,352 L 128,352 L 128,272 zM 415.648,240l-143.536,0 l 0.144,144l 143.424,0 L 415.648,240z M 303.744,271.616L 384,271.616 L 384,352.144 l-80.256,0 L 303.744,271.616 z" />
<glyph unicode="&#xe015;" d="M 362.667,352l0-21.333 c0-11.733-9.6-21.333-21.333-21.333l-42.667,0 c-11.733,0-21.333,9.6-21.333,21.333L 277.333,352 l-42.667,0 l0-21.333 c0-11.733-9.6-21.333-21.333-21.333L 170.667,309.333 C 158.933,309.333, 149.333,318.933, 149.333,330.667L 149.333,352 
		C 114.133,352, 85.333,323.2, 85.333,288l0-170.667 c0-35.2, 28.8-64, 64-64l 213.333,0 c 35.2,0, 64,28.8, 64,64L 426.667,288 C 426.667,323.2, 397.867,352, 362.667,352z M 384,96L 128,96 l0,170.667 l 256,0 L 384,96 zM 170.667,373.333c0,11.733, 9.6,21.333, 21.333,21.333l0,0c 11.733,0, 21.333-9.6, 21.333-21.333l0-21.333 c0-11.733-9.6-21.333-21.333-21.333l0,0C 180.267,330.667, 170.667,340.267, 170.667,352L 170.667,373.333 zM 298.667,373.333c0,11.733, 9.6,21.333, 21.333,21.333l0,0c 11.733,0, 21.333-9.6, 21.333-21.333l0-21.333 c0-11.733-9.6-21.333-21.333-21.333l0,0c-11.733,0-21.333,9.6-21.333,21.333L 298.667,373.333 z" />
<glyph unicode="&#xe016;" d="M 399.083,367.083c-8.341,8.341-21.824,8.341-30.165,0L 330.667,328.832l-8.085,8.085c-24.085,24.085-66.411,24.085-90.496,0l-89.003-89.003
	C 131.051,235.883, 124.395,219.797, 124.395,202.667s 6.656-33.216, 18.688-45.248L 151.168,149.333l-38.251-38.251c-8.341-8.341-8.341-21.824,0-30.165
	C 117.077,76.757, 122.539,74.667, 128,74.667s 10.923,2.091, 15.083,6.251L 181.333,119.168l 8.085-8.085c 12.032-12.032, 28.117-18.688, 45.248-18.688
	s 33.216,6.656, 45.248,18.688l 89.003,89.003c 12.032,12.032, 18.688,28.117, 18.688,45.248s-6.656,33.216-18.688,45.248L 360.832,298.667l 38.251,38.251
	C 407.424,345.259, 407.424,358.741, 399.083,367.083z M 338.752,260.416c 3.989-4.011, 6.187-9.344, 6.187-15.083s-2.219-11.093-6.187-15.083l-89.003-89.003
	c-8-7.957-22.165-7.957-30.165,0L 211.499,149.333l 16.917,16.917c 8.341,8.341, 8.341,21.824,0,30.165s-21.824,8.341-30.165,0L 181.333,179.499
	l-8.085,8.085C 169.28,191.573, 167.061,196.928, 167.061,202.667s 2.219,11.093, 6.187,15.083l 89.003,89.003c 4.011,3.989, 9.344,6.187, 15.083,6.187
	s 11.093-2.219, 15.083-6.187L 300.501,298.667l-16.917-16.917c-8.341-8.341-8.341-21.824,0-30.165C 287.744,247.424, 293.205,245.333, 298.667,245.333
	s 10.923,2.091, 15.083,6.251L 330.667,268.501L 338.752,260.416z" />
<glyph unicode="&#xe017;" d="M 253.096,459.468C 123.032,457.728, 19.016,350.867, 20.74,220.796c 1.744-130.008, 108.588-234.060, 238.652-232.328
		c 130.040,1.748, 234.080,108.609, 232.349,238.668C 490.003,357.156, 383.14,461.204, 253.096,459.468z M 279.2,380.98
		c 23.944,0, 31.016-13.892, 31.016-29.772c0-19.852-15.892-38.199-42.992-38.199c-22.68,0-33.473,11.412-32.841,30.26
		C 234.384,359.152, 247.688,380.98, 279.2,380.98z M 217.82,76.768c-16.359,0-28.347,9.924-16.896,53.588l 18.764,77.44
		c 3.265,12.412, 3.816,17.372,0,17.372c-4.904,0-26.144-8.572-38.688-17.012l-8.176,13.4
		C 212.624,254.793, 258.392,274.288, 278.016,274.288c 16.352,0, 19.080-19.352, 10.905-49.12l-21.496-81.412
		c-3.816-14.388-2.176-19.348, 1.632-19.348c 4.912,0, 20.992,5.968, 36.801,18.38l 9.264-12.412
		C 276.417,91.676, 234.167,76.768, 217.82,76.768z" />
<glyph unicode="&#xe018;" d="M 256.24,439.008c-118.773,0-215.040-96.292-215.040-215.040c0-118.773, 96.267-215.040, 215.040-215.040c 118.748,0, 215.040,96.267, 215.040,215.040
		C 471.281,342.716, 374.988,439.008, 256.24,439.008z M 300.488,223.968l 78.352-78.347l-44.252-44.244L 256.248,179.716L 177.901,101.372
		l-44.24,44.244L 212,223.964L 133.661,302.292l 44.24,44.264l 78.34-78.34l 78.34,78.332l 44.248-44.24L 300.488,223.968z" />
<glyph unicode="&#xe019;" d="M 213.333,53.333l-138.816,140.928c-20.843,20.843-22.976,54.571-2.133,75.392s 48.171,27.2, 69.013,6.379l 57.472-57.365l 112.875,161.259
					c 16.896,24.107, 50.155,29.995, 74.261,13.099s 29.995-50.155, 13.099-74.261L 213.333,53.333z" />
<glyph unicode="&#xe01a;" d="M 426.667,330.667L 362.667,394.667L 266.667,298.667L 170.667,394.667L 106.667,330.667L 202.667,234.667L 106.667,138.667L 170.667,74.667L 266.667,170.667L 362.667,74.667L 426.667,138.667L 330.667,234.667 			z" />
<glyph unicode="&#xe01b;" d="M 234.667,245.333A42.667,42.667 1260 1 0 320,245.333A42.667,42.667 1260 1 0 234.667,245.333zM 277.333,373.333c-106.027,0-192-128-192-128s 85.973-128, 192-128c 106.005,0, 192,128, 192,128S 383.339,373.333, 277.333,373.333z M 277.333,165.333c-44.16,0-80.043,35.861-80.043,80
			c0,44.16, 35.883,80, 80.043,80c 44.117,0, 80.043-35.84, 80.043-80C 357.376,201.195, 321.451,165.333, 277.333,165.333z" />
<glyph unicode="&#xe01c;" d="M 185.14,201.709l 143.36,0 l0,46.080 l-143.36,0 L 185.14,201.709 z M 384.241,454.368l-256,0 c-28.16,0-51.2-23.040-51.2-51.2l0-358.4 c0-28.16, 23.040-51.2, 51.2-51.2l 256,0 
		c 28.16,0, 51.2,23.040, 51.2,51.2l0,358.4 C 435.441,431.328, 412.401,454.368, 384.241,454.368z M 384.241,44.768l-256,0 l0,358.4 l 256,0 L 384.241,44.768 z
		 M 327.921,347.629l-143.36,0 l0-44.8 l 143.36,0 L 327.921,347.629 z M 327.921,146.669l-143.36,0 l0-44.8 l 143.36,0 L 327.921,146.669 z" />
<glyph unicode="&#xe01d;" d="M 252.953,469.704C 117.24,467.888, 8.689,356.4, 10.504,220.684c 1.808-135.716, 113.304-244.268, 249.020-242.461
		c 135.716,1.824, 244.268,113.312, 242.457,249.028C 500.165,362.968, 388.664,471.52, 252.953,469.704z M 258.832,29.967
		c-107.144-1.433-195.16,84.256-196.6,191.412c-1.428,107.14, 84.272,195.16, 191.415,196.589
		c 107.144,1.437, 195.168-84.26, 196.596-191.404C 451.672,119.416, 365.98,31.396, 258.832,29.967z M 139.828,108.647
		c0,0, 116.963,16.068, 166.868,65.968c 49.888,49.891, 65.96,166.852, 65.96,166.852s-116.96-16.068-166.852-65.96
		C 155.904,225.612, 139.828,108.647, 139.828,108.647z M 231.024,250.284c 20.968,20.98, 61.080,35.864, 95.472,45.108
		c-9.264-34.333-24.212-74.741-45.036-95.557c-13.92-13.932-36.509-13.941-50.436,0C 217.088,213.768, 217.088,236.351, 231.024,250.284z" />
<glyph unicode="&#xe01e;" d="M 198.904,165.848l-102.419,40.968l0-34.659 l 102.419-40.971L 198.904,165.848 z M 198.904,272.183l-102.419,40.968l0-34.659 l 102.419-40.964
		L 198.904,272.183 z M 474.368,449.968c-7.032,4.761-15.968,5.724-23.856,2.568L 255.216,374.416L 59.92,452.536
		c-7.888,3.156-16.824,2.191-23.86-2.568c-7.029-4.761-11.244-12.704-11.244-21.2l0-327.68 c0-10.471, 6.368-19.88, 16.084-23.772
		l 204.364-81.74c0,0, 4.192-1.353, 4.981-1.511c 1.644-0.321, 3.309-0.496, 4.973-0.496s 3.324,0.176, 4.967,0.496
		c 0.783,0.16, 4.996,1.52, 4.996,1.52l 204.343,81.733c 9.72,3.892, 16.092,13.301, 16.092,23.772l0,327.68 
		C 485.617,437.264, 481.4,445.208, 474.368,449.968z M 229.616,45.944l-163.84,65.532L 65.776,398.399 l 163.84-65.544L 229.616,45.944 z M 444.657,111.476
		l-163.84-65.532L 280.817,332.855 l 163.84,65.544L 444.657,111.476 z M 413.944,206.816l-102.419-40.968l0-34.664 l 102.419,40.971L 413.944,206.816 z M 413.944,313.151
		l-102.419-40.968l0-34.656 l 102.419,40.964L 413.944,313.151 z" />
<glyph unicode="&#xe01f;" d="M 251.929,469.704C 116.208,467.896, 7.661,356.404, 9.48,220.684c 1.808-135.709, 113.299-244.268, 249.020-242.451
		c 135.709,1.812, 244.268,113.304, 242.451,249.025C 499.141,362.976, 387.632,471.524, 251.929,469.704z M 257.808,29.964
		c-107.147-1.428-195.168,84.268-196.6,191.42c-1.428,107.14, 84.272,195.16, 191.412,196.592
		c 107.147,1.428, 195.16-84.264, 196.6-191.412C 450.648,119.416, 364.953,31.404, 257.808,29.964z M 195.080,182.335
		c-10.379,0-18.241,3.777-23.56,11.36c-5.328,7.568-7.98,17.656-7.98,30.28c0,27.748, 10.507,41.629, 31.54,41.629
		c 4.199,0, 8.76-1.4, 13.66-4.199c 4.9-2.812, 9.040-7.72, 12.412-14.72l 31.536,16.399
		c-12.609,22.708-33.507,34.068-62.668,34.068c-19.909,0-36.372-6.588-49.4-19.768c-13.041-13.18-19.572-30.98-19.572-53.408
		c0-22.992, 6.465-40.944, 19.352-53.84c 12.888-12.903, 29.872-19.343, 50.9-19.343c 13.173,0, 25.228,3.304, 36.161,9.881
		c 10.932,6.593, 19.492,15.631, 25.659,27.132l-29.032,14.72C 218.48,189.064, 208.808,182.335, 195.080,182.335z M 330.92,182.335
		c-10.379,0-18.232,3.777-23.552,11.36c-5.328,7.568-7.988,17.656-7.988,30.28c0,27.748, 10.507,41.629, 31.54,41.629
		c 4.48,0, 9.18-1.4, 14.080-4.199c 4.912-2.812, 9.048-7.72, 12.42-14.72l 31.108,16.399
		c-12.336,22.708-33.079,34.068-62.24,34.068c-19.909,0-36.376-6.588-49.416-19.768c-13.031-13.18-19.544-30.98-19.544-53.408
		c0-22.992, 6.372-40.944, 19.131-53.84c 12.748-12.903, 29.788-19.343, 51.101-19.343c 12.888,0, 24.808,3.304, 35.741,9.881
		c 10.932,6.593, 19.62,15.631, 26.080,27.132l-29.44,14.72C 354.329,189.064, 344.648,182.335, 330.92,182.335z" />
<glyph unicode="&#xe020;" d="M 128,394.667C 116.267,394.667, 106.667,385.067, 106.667,373.333l0-298.667 c0-11.733, 7.381-15.189, 16.405-7.659l 95.211,79.339c 9.024,7.531, 23.765,7.531, 32.789,0l 95.211-79.339
			C 355.285,59.477, 362.667,62.933, 362.667,74.667L 362.667,373.333 c0,11.733-9.6,21.333-21.333,21.333L 128,394.667 z" />
<glyph unicode="&#xe021;" d="M 303.564,418.528c 26.052,0, 39.079-17.775, 39.079-38.091c0-25.382-22.623-48.853-52.107-48.853
	c-24.684,0-39.084,14.597-38.4,38.704C 252.136,390.606, 269.272,418.528, 303.564,418.528z M 223.332,29.408
	c-20.574,0-35.66,12.694-21.259,68.545l 23.622,99.057c 4.111,15.866, 4.788,22.209,0,22.209c-6.179,0-32.885-10.96-48.678-21.752
	l-10.275,17.142c 50.054,42.512, 107.638,67.445, 132.314,67.445c 20.567,0, 24.003-24.75, 13.718-62.835l-27.040-104.129
	c-4.804-18.4-2.736-24.744, 2.048-24.744c 6.173,0, 26.416,7.638, 46.293,23.508l 11.661-15.87
	C 297.053,48.476, 243.903,29.408, 223.332,29.408z" />
<glyph unicode="&#xe022;" d="M 61.68,418.528L 61.68,357.888 c 181.408,0, 328.473-147.072, 328.473-328.48l 60.648,0 
		C 450.801,244.312, 276.58,418.528, 61.68,418.528z M 61.68,297.245l0-60.64 c 114.424,0, 207.188-92.768, 207.188-207.196L 329.508,29.408 
		C 329.508,177.328, 209.601,297.245, 61.68,297.245z M 119.784,145.636c-32.084,0-58.104-26.024-58.104-58.112
		c0-32.104, 26.020-58.116, 58.104-58.116c 32.104,0, 58.123,26.012, 58.123,58.116
		C 177.908,119.611, 151.888,145.636, 119.784,145.636z" />
<glyph unicode="&#xe023;" d="M 256.24,439.008c-118.773,0-215.040-96.292-215.040-215.040c0-118.773, 96.267-215.040, 215.040-215.040c 118.748,0, 215.040,96.267, 215.040,215.040
		C 471.281,342.716, 374.988,439.008, 256.24,439.008z M 300.488,223.968l 78.352-78.347l-44.252-44.244L 256.248,179.716L 177.901,101.372
		l-44.24,44.244L 212,223.964L 133.661,302.292l 44.24,44.264l 78.34-78.34l 78.34,78.332l 44.248-44.24L 300.488,223.968z" />
<glyph unicode="&#xe024;" d="M 405.333,266.667L 298.667,266.667L 298.667,373.333L 192,373.333L 192,266.667L 85.333,266.667L 85.333,160L 192,160L 192,53.333L 298.667,53.333L 298.667,160L 405.333,160 			z" />
<glyph unicode="&#xe025;" d="M 106.667,288L 426.667,288L 426.667,181.333L 106.667,181.333z" />
<glyph unicode="&#xe026;" d="M 362.667,138.667L 149.333,138.667L 149.333,352L 234.667,352L 277.333,416L 85.333,416L 85.333,74.667L 426.667,74.667L 426.667,202.667L 405.333,181.333 			zM 170.667,181.333c0,0, 21.333,42.667, 85.333,64s 64,0, 64,0l0-85.333 l 128,128l-128,128l0-64 c-31.744-4.587-63.787-21.12-85.333-42.667C 192,266.667, 170.667,181.333, 170.667,181.333z" />
<glyph unicode="&#xe027;" d="M 0,320 L 512,320 L 480,0 L 32,0 L 0,320 Z M 464,384 L 480,352 L 32,352 L 64,416 L 240,416 L 256,384 L 464,384 Z" />
<glyph unicode="&#xe028;" d="M 416,0L 512,256L 96,256L0,0 zM 64,288 L 0,0 L 0,416 L 144,416 L 208,352 L 416,352 L 416,288 Z" />
<glyph unicode="&#xe029;" d="M 32,384L 480,384L 480,288L 32,288zM 32,256L 480,256L 480,160L 32,160zM 32,128L 480,128L 480,32L 32,32z" />
<glyph unicode="&#xe02a;" d="M0,480L 128,480L 128,352L0,352zM 192,448L 512,448L 512,384L 192,384zM0,288L 128,288L 128,160L0,160zM 192,256L 512,256L 512,192L 192,192zM0,96L 128,96L 128-32L0-32zM 192,64L 512,64L 512,0L 192,0z" />
<glyph unicode="&#xe02b;" d="M 384.241,147.168c-17.595,0-33.756-5.984-46.704-15.932L 203.923,211.397c 0.676,4.1, 1.116,8.284, 1.116,12.572
		c0,4.297-0.439,8.473-1.116,12.572l 133.613,80.164c 12.948-9.956, 29.108-15.937, 46.704-15.937c 42.408,0, 76.8,34.392, 76.8,76.8
		c0,42.412-34.392,76.8-76.8,76.8c-42.412,0-76.8-34.388-76.8-76.8c0-4.289, 0.439-8.468, 1.112-12.569L 174.944,284.832
		c-12.953,9.956-29.112,15.937-46.704,15.937c-42.412,0-76.8-34.388-76.8-76.8s 34.388-76.8, 76.8-76.8
		c 17.592,0, 33.752,5.976, 46.704,15.937l 133.607-80.168c-0.672-4.1-1.112-8.272-1.112-12.569c0-42.412, 34.388-76.8, 76.8-76.8
		c 42.408,0, 76.8,34.388, 76.8,76.8C 461.041,112.776, 426.649,147.168, 384.241,147.168z" />
<glyph unicode="&#xe02c;" d="M 347.184-32L 367.744-11.44L 148.32,208L 367.728,427.424L 347.168,448L 107.168,208 		z" />
<glyph unicode="&#xe02d;" d="M 164.56-32L 144-11.44L 363.44,208L 144,427.44L 164.56,448L 404.576,208 		z" />
<glyph unicode="&#xe02e;" d="M 170.288,330.272L 362.288,138.272L 341.728,117.712L 149.728,309.712zM 341.712,330.272L 362.272,309.712L 170.272,117.712L 149.712,138.272z" />
<glyph unicode="&#xe02f;" d="M 398.016,388.16c-66.645,65.557-174.699,65.557-241.344,0c-66.645-65.579-66.645-171.883,0-237.44L 277.333,32l 120.683,118.72
			C 464.661,216.277, 464.661,322.581, 398.016,388.16z M 224.533,213.867c-29.163,29.163-29.163,76.437,0,105.6c 29.163,29.141, 76.437,29.141, 105.6,0
			c 29.141-29.163, 29.141-76.437,0-105.6C 300.971,184.704, 253.717,184.704, 224.533,213.867z" />
<glyph unicode="&#xe030;" d="M 112.032,319.984L 399.696,319.984L 399.696,288.016L 112.032,288.016zM 112.080,240L 399.744,240L 399.744,208.016L 112.080,208.016zM 112.080,160L 399.744,160L 399.744,128.016L 112.080,128.016z" />
<glyph unicode="&#xe031;" d="M 320,160l-128,0 l0,128 l 128,0 L 320,160 z M 224,192l 64,0 l0,64 l-64,0 L 224,192 z" />
<glyph unicode="&#xf065;" d="M 215.714,178.286q0-3.714 -2.857-6.571l-94.857-94.857l 41.143-41.143q 5.429-5.429 5.429-12.857t-5.429-12.857t-12.857-5.429l-128,0 q-7.429,0 -12.857,5.429t-5.429,12.857l0,128 q0,7.429 5.429,12.857t 12.857,5.429t 12.857-5.429l 41.143-41.143l 94.857,94.857q 2.857,2.857 6.571,2.857t 6.571-2.857l 32.571-32.571q 2.857-2.857 2.857-6.571zM 438.857,425.143l0-128 q0-7.429 -5.429-12.857t-12.857-5.429t-12.857,5.429l-41.143,41.143l-94.857-94.857 q-2.857-2.857 -6.571-2.857t-6.571,2.857l-32.571,32.571q-2.857,2.857 -2.857,6.571t 2.857,6.571l 94.857,94.857l-41.143,41.143q-5.429,5.429 -5.429,12.857t 5.429,12.857t 12.857,5.429l 128,0 q 7.429,0 12.857-5.429t 5.429-12.857z" horiz-adv-x="438.857"  />
<glyph unicode="&#xf066;" d="M 219.429,205.714l0-128 q0-7.429 -5.429-12.857t-12.857-5.429t-12.857,5.429l-41.143,41.143l-94.857-94.857q-2.857-2.857 -6.571-2.857t-6.571,2.857l-32.571,32.571q-2.857,2.857 -2.857,6.571t 2.857,6.571l 94.857,94.857l-41.143,41.143q-5.429,5.429 -5.429,12.857t 5.429,12.857t 12.857,5.429l 128,0 q 7.429,0 12.857-5.429t 5.429-12.857zM 435.143,397.714q0-3.714 -2.857-6.571l-94.857-94.857l 41.143-41.143q 5.429-5.429 5.429-12.857t-5.429-12.857 t-12.857-5.429l-128,0 q-7.429,0 -12.857,5.429t-5.429,12.857l0,128 q0,7.429 5.429,12.857t 12.857,5.429t 12.857-5.429l 41.143-41.143l 94.857,94.857q 2.857,2.857 6.571,2.857t 6.571-2.857l 32.571-32.571q 2.857-2.857 2.857-6.571z" horiz-adv-x="438.857"  />
<glyph unicode="&#x20;" horiz-adv-x="256" />
<glyph class="hidden" unicode="&#xf000;" d="M0,480L 512 -32L0 -32 z" horiz-adv-x="0" />
</font>
</defs>
</svg>
